Jump to content

Davor

Punopravni Član
  • Content Count

    374
  • Joined

  • Last visited

  • Days Won

    42

Davor last won the day on July 11 2020

Davor had the most liked content!

Community Reputation

1,109 Excellent

About Davor

  • Rank
    Sekretar

Profile Information

  • Location
    Lost In The Darkness
  • Interests
    Muzika

Recent Profile Visitors

9,462 profile views
  1. Mislim da ces to tesko naci ima hdtv rip u mkv-u torrent
  2. Treba mi Dr. Iggy - Kao pre 600dpi kompletan omot
  3. Mislim da treba napraviti sekcije za te ripove pa nek guraju tu.
  4. Vesna Zmijanac - 1988 - Istina foobar2000 1.6.5 / Dynamic Range Meter 1.1.1 log date: 2021-06-09 15:49:13 -------------------------------------------------------------------------------- Analyzed: Vesna Zmijanac / Istina -------------------------------------------------------------------------------- DR Peak RMS Duration Track -------------------------------------------------------------------------------- DR12 -0.42 dB -13.87 dB 3:05 01-Eh, Da Je Istina DR11 -0.11 dB -13.78 dB 3:51 02-Kad Zamirisu Jorgovani DR12 -0.26 dB -13.89 dB 3:38 03-Leto 88 DR10 -0.08 dB -13.82 dB 3:37 04-Kraj DR12 -0.10 dB -13.74 dB 3:10 05-Oluja DR11 -0.18 dB -13.94 dB 3:00 06-Hajde Da Zaspimo DR12 -0.24 dB -13.76 dB 3:53 07-Kazni Me DR10 -0.64 dB -13.70 dB 4:17 08-Kraljica Tuge DR10 -0.76 dB -13.75 dB 3:38 09-Ne Ide To DR11 -0.19 dB -13.38 dB 3:46 10-U Mom Srcu DR11 -0.29 dB -13.37 dB 3:26 11-Ne Trosi Noc -------------------------------------------------------------------------------- Number of tracks: 11 Official DR value: DR11 Samplerate: 44100 Hz Channels: 2 Bitrate: 320 kbps Codec: MP3 ================================================================================ [Hidden Content]
  5. Davor

    Davor traži

    Trebaju mi ovi albumi Wav-cue-log omoti Gala - 1994 - Budim se Gala - 1995 - Ljubavi Ne Znam Ime Gala - 1997 - U Oci Me Pogledaj Gala - 1999 - Nedostajaces Mi Gala - 2001 - Gala
  6. Boris I Nocna Straza - 1988 - Dok Svira Radio -------------------------------------------------------------------------------- DR Peak RMS Duration Track -------------------------------------------------------------------------------- DR11 -0.30 dB -12.99 dB 4:00 ?-01. Boris I Nocna Straza - Dok Svira Radio DR11 -0.30 dB -12.87 dB 3:15 ?-02. Boris I Nocna Straza - Padam, Padam DR11 -0.30 dB -13.02 dB 3:11 ?-03. Boris I Nocna Straza - Nisam Tebe Zbario DR11 -0.30 dB -12.96 dB 2:49 ?-04. Boris I Nocna Straza - U Cizmama Od Plamena DR10 -0.30 dB -13.04 dB 2:48 ?-05. Boris I Nocna Straza - Ljuljaj Se U Ritmu DR11 -0.30 dB -12.96 dB 3:29 ?-06. Boris I Nocna Straza - Twist Ispod Duge DR9 -0.30 dB -13.09 dB 3:46 ?-07. Boris I Nocna Straza - Sunce Na Zapadu DR11 -0.30 dB -13.01 dB 3:09 ?-08. Boris I Nocna Straza - S Tobom Mi Je Najbolje -------------------------------------------------------------------------------- Number of tracks: 8 Official DR value: DR11 Samplerate: 44100 Hz Channels: 2 Bits per sample: 16 Bitrate: 1411 kbps Codec: PCM ================================================================================ [Hidden Content] Snimak je sa kasete. Deck Yamaha KX-650
  7. Djogani Fantastiko - 1996 - Pronadji Sebe -------------------------------------------------------------------------------- Disc 1 : Djogani Fantastiko / Pronadji sebe -------------------------------------------------------------------------------- DR Peak RMS Duration Track -------------------------------------------------------------------------------- DR10 -0.21 dB -11.63 dB 3:08 01-Srusio si mi sve DR11 -0.21 dB -12.34 dB 4:40 02-Ti si moja potreba DR11 -0.21 dB -13.25 dB 3:21 03-Nikad vise DR11 -0.21 dB -12.63 dB 4:08 04-Kada noc DR11 -0.21 dB -13.09 dB 4:03 05-Covek od celika DR10 -0.21 dB -12.71 dB 3:10 06-Voli me jos ovu noc DR11 -0.21 dB -11.74 dB 3:36 07-Igraj, igraj DR12 -0.21 dB -14.13 dB 4:10 08-Baby, baby DR11 -0.21 dB -12.97 dB 3:23 09-Koliko dana DR12 -0.21 dB -14.87 dB 3:39 10-Bombastik DR10 -0.21 dB -11.95 dB 3:23 11-Muve, buve DR10 -0.21 dB -11.02 dB 4:40 12-Leto je DR10 -0.21 dB -13.52 dB 2:34 13-Orkestar [mix] DR11 -0.21 dB -14.22 dB 3:32 14-Nece mene sudbina DR13 -0.21 dB -14.32 dB 3:36 15-U srcu mom DR12 -0.21 dB -13.61 dB 4:08 16-Indija DR10 -0.21 dB -12.44 dB 3:18 17-Velika ljubav je veliki bol DR10 -0.21 dB -12.24 dB 3:30 18-Gospodar bio DR11 -0.21 dB -12.53 dB 4:21 19-O Boze, znam -------------------------------------------------------------------------------- -------------------------------------------------------------------------------- Disc 2 : Djogani Fantastiko / Idemo na Mars -------------------------------------------------------------------------------- DR Peak RMS Duration Track -------------------------------------------------------------------------------- DR10 -0.21 dB -12.20 dB 3:15 01-Idemo na Mars DR12 -0.21 dB -13.49 dB 3:07 02-Idi s Bogom DR13 -0.21 dB -15.35 dB 3:53 03-Gde si ti DR8 -0.21 dB -9.79 dB 3:36 04-Ritam ljubavi DR12 -0.21 dB -13.90 dB 3:50 05-U ovom gradu DR11 -0.21 dB -13.35 dB 3:34 06-Ola, ola, e DR15 -0.22 dB -16.77 dB 4:25 07-Ne daj se DR12 -0.21 dB -13.99 dB 3:20 08-Daj mi malo nade DR11 -0.21 dB -12.59 dB 3:14 09-Hemija DR9 -0.21 dB -10.80 dB 3:07 10-Naivna DR13 -0.21 dB -15.16 dB 3:55 11-Gde si ti [II] DR13 -0.22 dB -15.08 dB 3:16 12-Daj mi malo nade [II] -------------------------------------------------------------------------------- Number of tracks: 12 Official DR value: DR12 Samplerate: 44100 Hz Channels: 2 Bits per sample: 16 Bitrate: 872 kbps Codec: FLAC ================================================================================ Number of tracks: 19 Official DR value: DR11 Samplerate: 44100 Hz Channels: 2 Bits per sample: 16 Bitrate: 924 kbps Codec: FLAC ================================================================================ [Hidden Content]
  8. Davor

    Davor traži

    Đogani - 2007 - Ljubav Moja (Wav-Cue-Log+Omot)
  9. Razni Izvodjaci - 1990 - Zlatni Glasovi '90 Kaseta 1 foobar2000 1.6.5 / Dynamic Range Meter 1.1.1 log date: 2021-05-21 15:56:17 -------------------------------------------------------------------------------- Analyzed: ? / ? -------------------------------------------------------------------------------- DR Peak RMS Duration Track -------------------------------------------------------------------------------- DR11 -0.30 dB -13.06 dB 3:41 ?-01. Ceca Velickovic - Drugarice Prokletnice DR11 -0.30 dB -13.18 dB 2:43 ?-02. Seki Turkovic - Pogledaj Me DR11 -0.73 dB -13.15 dB 3:14 ?-03. Vera Matovic - Kriva Sam DR11 -0.68 dB -13.20 dB 2:47 ?-04. Aca Ilic - Lepe Oci Zelene DR11 -0.30 dB -13.13 dB 3:39 ?-05. Extra Nena - Zbog Jednog Coveka DR11 -0.35 dB -13.17 dB 4:27 ?-06. Milan Babic - Dusmani Dusu Nemaju DR11 -0.67 dB -13.08 dB 3:56 ?-07. Vesna Zmijanac - Ne Kuni Ga Majko DR11 -0.30 dB -13.06 dB 3:14 ?-08. Zoran kalezic - Moj Dobri Andjele DR12 -0.30 dB -13.05 dB 4:00 ?-09. Biljana Jevtic - Proklet Da Je Ovaj Zivot DR10 -0.30 dB -12.80 dB 3:15 ?-10. Radisa Urosevic - Dunjo Moja DR11 -0.30 dB -13.11 dB 3:01 ?-11. Snezana Babic - Takni Me, Takni DR9 -0.30 dB -13.01 dB 3:44 ?-12. Dobrivoje Topalovic - Crno Vino -------------------------------------------------------------------------------- Number of tracks: 12 Official DR value: DR11 Samplerate: 44100 Hz Channels: 2 Bits per sample: 16 Bitrate: 1411 kbps Codec: PCM ================================================================================ [Hidden Content]
  10. Davor

    Davor traži

    Ako neko ima Neki To Vole Vruće - Zlatna kolekcija (Wav-Cue-Log) + Omoti
×
×
  • Create New...