Jump to content

mercedes

Punopravni Član
  • Content Count

    706
  • Joined

  • Last visited

  • Days Won

    169

mercedes last won the day on August 12 2020

mercedes had the most liked content!

Community Reputation

3,241 Excellent

5 Followers

About mercedes

  • Rank
    Potpredsednik

Recent Profile Visitors

2,085 profile views
  1. Mitar Miric / Bog je poslao zenu 1993g -------------------------------------------------------------------------------- DR Peak RMS Duration Track -------------------------------------------------------------------------------- DR13 0.00 dB -14.23 dB 3:31 ?-01.Dabogda se meni vratila DR13 0.00 dB -14.74 dB 4:28 ?-02.Devojka preko puta DR15 0.00 dB -15.18 dB 3:16 ?-03.Zivot je ludnica DR13 0.00 dB -15.09 dB 3:06 ?-04.Svi su me izdali DR13 0.00 dB -14.20 dB 3:33 ?-05.Bog je poslao zenu DR14 0.00 dB -15.02 dB 3:16 ?-06.Nemoj to da mi radis DR14 0.00 dB -15.33 dB 4:04 ?-07.Pobego sam od kuce DR13 0.00 dB -13.93 dB 3:38 ?-08.Da li ces me zaliti -------------------------------------------------------------------------------- Number of tracks: 8 Official DR value: DR13 Samplerate: 96000 Hz Channels: 2 Bits per sample: 24 Bitrate: 3011 kbps Codec: FLAC ======================================================= [Hidden Content]
  2. Gordana Stojicevic / Nisi znao da me cuvas 1983g -------------------------------------------------------------------------------- DR Peak RMS Duration Track -------------------------------------------------------------------------------- DR13 -0.02 dB -13.97 dB 4:22 ?-01.Nisi znao da me cuvas DR12 -0.02 dB -13.40 dB 3:13 ?-02.Moram da mu prastam DR13 -0.01 dB -14.61 dB 3:00 ?-03.Kceri Bulka aber kazi DR13 0.00 dB -15.30 dB 5:39 ?-04.Okreni se kad od mene podes DR13 0.00 dB -14.93 dB 3:37 ?-05.Dance DR13 0.00 dB -14.20 dB 4:04 ?-06.Zagrli me i oprosti DR11 -0.14 dB -14.00 dB 3:17 ?-07.Reci da li me volis DR13 0.00 dB -17.12 dB 5:05 ?-08.Zagrlicu uspomenu -------------------------------------------------------------------------------- Number of tracks: 8 Official DR value: DR13 Samplerate: 48000 Hz Channels: 2 Bits per sample: 16 Bitrate: 767 kbps Codec: FLAC ============================================================== [Hidden Content]
  3. Nema na cemu buraz drago mi je ako valjaa vec sam se zabrinuo niko nista ne komentarise ni valja ni ne valja
  4. Miroljub Brzakovic Brzi / Prevari me zivot 1991g -------------------------------------------------------------------------------- DR Peak RMS Duration Track -------------------------------------------------------------------------------- DR13 0.00 dB -14.43 dB 2:54 ?-01.Prevari me zivot DR11 0.00 dB -12.20 dB 3:01 ?-02.Pijan sam DR13 0.00 dB -15.24 dB 4:14 ?-03.Evo ti ruka ciganko DR11 0.00 dB -12.95 dB 2:35 ?-04.Nevero moja DR11 0.00 dB -11.45 dB 2:24 ?-05.Mi smo prica ljubavi tuzne DR11 0.00 dB -11.99 dB 3:14 ?-06.Gresnog si me majko rodila DR12 0.00 dB -13.75 dB 4:31 ?-07.Hanuma DR12 0.00 dB -13.56 dB 4:01 ?-08.Ikad postanem sed -------------------------------------------------------------------------------- Number of tracks: 8 Official DR value: DR12 Samplerate: 44100 Hz Channels: 2 Bits per sample: 16 Bitrate: 895 kbps Codec: FLAC ========================================================== [Hidden Content]
  5. Miroljub Brzakovic Brzi / Ovo su vremena tuzna 1989g -------------------------------------------------------------------------------- DR Peak RMS Duration Track -------------------------------------------------------------------------------- DR12 0.00 dB -13.92 dB 3:17 ?-01.Ovo su vremena tuzna DR13 0.00 dB -14.74 dB 3:25 ?-02.Opet bih tebe voleo DR13 0.00 dB -14.05 dB 2:52 ?-03.Svrati do mene DR12 0.00 dB -14.18 dB 3:30 ?-04.Kucnuo je cas DR13 -0.02 dB -15.93 dB 3:08 ?-05.Da li ti nedostajem DR12 0.00 dB -14.85 dB 3:29 ?-06.Sto godina jos da zivim DR14 -0.01 dB -15.30 dB 2:43 ?-07.Daleko sada zivis DR13 -0.05 dB -14.68 dB 3:32 ?-08.Anka -------------------------------------------------------------------------------- Number of tracks: 8 Official DR value: DR13 Samplerate: 44100 Hz Channels: 2 Bits per sample: 16 Bitrate: 880 kbps Codec: FLAC ======================================================== [Hidden Content]
  6. Miroljub Brzakovic Brzi / Ja ti prastam 1987g -------------------------------------------------------------------------------- DR Peak RMS Duration Track -------------------------------------------------------------------------------- DR12 0.00 dB -13.02 dB 2:35 ?-01.Ja ti prastam DR12 0.00 dB -14.13 dB 4:08 ?-02.Julske kise DR13 0.00 dB -14.30 dB 3:41 ?-03.Casa srece DR12 0.00 dB -13.91 dB 3:57 ?-04.Mila moja DR12 0.00 dB -13.35 dB 3:22 ?-05.Dve godine DR12 0.00 dB -14.18 dB 3:51 ?-06.Romanela DR14 0.00 dB -14.83 dB 2:14 ?-07.Pozovi me DR12 0.00 dB -13.40 dB 4:51 ?-08.Nisi vise moja simpatija -------------------------------------------------------------------------------- Number of tracks: 8 Official DR value: DR12 Samplerate: 44100 Hz Channels: 2 Bits per sample: 16 Bitrate: 926 kbps Codec: FLAC ========================================================= [Hidden Content]
  7. https://mega.nz/file/f0VVjSga#BI-IvJzoiicxF-S0J2StG27HCNmk3J3QMeBcfNOgbKQ
  8. https://www.file-upload.net/en/download-14566300/Trideset.flac.html
×
×
  • Create New...