Jump to content

Leaderboard


Popular Content

Showing content with the highest reputation since 05/21/2021 in all areas

  1. 46 points
    Vesna Zmijanac - ISTINA | © 1988 PGP-RTB | Vinyl 24bit 96khz Tracks: 11 | DR value: DR10 | Samplerate: 96000 Hz | Channels: 2 | Bits per sample: 24 | Bitrate: 2898 kbps | Codec: FLAC 1. EH, DA JE ISTINA 3,05 (M. Marković - M. Marković - M. Marković) 2. KAD ZAMIRIŠU JORGOVANI 3,51 (E. R. Halidović - K. Kovač - E. R. Halidović) 3. LETO '88. 3,38 (M. Marković - M. Marković - M. Marković) 4. KRAJ 3,37 (M. Marković - M. Marković - M. Marković) 5. OLUJA 3,10 (M. Marković - M. Marković - M. Marković) 6. HAJDE DA ZASPIMO 3,00 (P. Vuković - P. Vuković - S. Vuković) 7. KAZNI ME 3,53 (N. Urošević - N. Urošević - N. Urošević) 8. KRALJICA TUGE 4,17 (R. Krstić - K. Kovač - Z. Matić) 9. NE IDE TO 3,38 (N. Urošević - N. Urošević - N. Urošević) 10. U MOM SRCU 3,46 (R. Graić - K. Kovač - R. Graić) 11. NE TROŠI NOĆ 3,26 (P. Vuković - P. Vuković - S. Gajić) *** Tools: Audio Technica VM540ML | ClickRepair 3 | iZotope RX 8 | iZotope Ozone 9 | Adobe Audition 2021 FLAC 24bit 96khz: [Hidden Content] FLAC 16bit 44.1khz: [Hidden Content] *** [Hidden Content]
  2. 33 points
    foobar2000 1.3.1 / Dynamic Range Meter 1.1.1 log date: 2021-06-13 03:39:37 -------------------------------------------------------------------------------- Analyzed: Jasna Zaimovic & Orkestar Dragana Stojkovica Bosanca - 25.06.1991. (LP) / Kad me zivot zaboli Jugoton LP-6-EPP 2 03450 5 - Promo (Vinyl rip by Toolyo 13-06-2021) Audiophile Special Hi-Res (M) -------------------------------------------------------------------------------- DR Peak RMS Duration Track -------------------------------------------------------------------------------- DR10 0.00 dB -11.45 dB 3:23 01-A1 - Kad me zivot zaboli DR11 0.00 dB -12.48 dB 4:02 02-A2 - Ako me jos volis DR10 0.00 dB -11.59 dB 3:29 03-A3 - Sta da ucinim DR10 0.00 dB -12.08 dB 3:47 04-A4 - Srce je prazno DR10 0.00 dB -11.61 dB 3:21 05-B1 - Hajde da se pomirimo DR10 0.00 dB -11.68 dB 3:45 06-B2 - Ne zovi me u zoru DR10 0.00 dB -12.24 dB 3:44 07-B3 - Molitva i grijeh DR9 0.00 dB -12.26 dB 3:28 08-B4 - Gresna mi dusa -------------------------------------------------------------------------------- Number of tracks: 8 Official DR value: DR10 Samplerate: 96000 Hz Channels: 2 Bits per sample: 24 Bitrate: 2928-3037 kbps Codec: FLAC [Hidden Content]
  3. 33 points
    Miroljub Brzakovic Brzi / Ovo su vremena tuzna 1989g -------------------------------------------------------------------------------- DR Peak RMS Duration Track -------------------------------------------------------------------------------- DR12 0.00 dB -13.92 dB 3:17 ?-01.Ovo su vremena tuzna DR13 0.00 dB -14.74 dB 3:25 ?-02.Opet bih tebe voleo DR13 0.00 dB -14.05 dB 2:52 ?-03.Svrati do mene DR12 0.00 dB -14.18 dB 3:30 ?-04.Kucnuo je cas DR13 -0.02 dB -15.93 dB 3:08 ?-05.Da li ti nedostajem DR12 0.00 dB -14.85 dB 3:29 ?-06.Sto godina jos da zivim DR14 -0.01 dB -15.30 dB 2:43 ?-07.Daleko sada zivis DR13 -0.05 dB -14.68 dB 3:32 ?-08.Anka -------------------------------------------------------------------------------- Number of tracks: 8 Official DR value: DR13 Samplerate: 44100 Hz Channels: 2 Bits per sample: 16 Bitrate: 880 kbps Codec: FLAC ======================================================== [Hidden Content]
  4. 32 points
    foobar2000 1.3.1 / Dynamic Range Meter 1.1.1 log date: 2021-05-25 03:11:11 -------------------------------------------------------------------------------- Analyzed: Ferid Avdic - 1987 (LP) / Nema dalje - Sarajevo-disk LP 1087 (Vinyl rip by Muhamed 2020) Remaster & Edit by Toolyo 25-05-2021 -------------------------------------------------------------------------------- DR Peak RMS Duration Track -------------------------------------------------------------------------------- DR11 0.00 dB -13.36 dB 3:05 01-A1 - Nema dalje DR11 0.00 dB -13.61 dB 4:38 02-A2 - Ostani bar jos malo DR10 0.00 dB -12.92 dB 3:39 03-A3 - Ne daj nasu ljubav DR11 0.00 dB -13.81 dB 4:16 04-A4 - Eno Muje, jos tuguje DR11 0.00 dB -13.61 dB 3:48 05-A5 - Ove si noci beskrajno lijepa DR10 0.00 dB -12.64 dB 4:32 06-B1 - Djevojacka kletva DR12 0.00 dB -13.65 dB 2:41 07-B2 - Lako je tebi DR11 0.00 dB -13.10 dB 5:19 08-B3 - Bre, bato DR11 0.00 dB -12.66 dB 5:27 09-B4 - U casu vina sve bi stalo -------------------------------------------------------------------------------- Number of tracks: 9 Official DR value: DR11 Samplerate: 96000 Hz Channels: 2 Bits per sample: 24 Bitrate: 2852-2972 kbps Codec: FLAC [Hidden Content]
  5. 30 points
    foobar2000 1.3.1 / Dynamic Range Meter 1.1.1 log date: 2021-05-28 02:00:15 -------------------------------------------------------------------------------- Analyzed: Ferid Avdic & Orkestar Sinana Alimanovica - 1991 (MC) Moja vjerna ljubo - Operta KO 0002/Jugoton LP U 02994 L - promo MC rip by Endzy 2020 - Edit & Remaster by Toolyo 27-05-2021 -------------------------------------------------------------------------------- DR Peak RMS Duration Track -------------------------------------------------------------------------------- DR6 0.00 dB -8.30 dB 3:01 01-A1 - Ako Bog da srece DR6 0.00 dB -8.08 dB 3:54 02-A2 - Moja vjerna ljubo DR8 0.00 dB -9.16 dB 2:06 03-A3 - Kako da te opet volim DR7 0.00 dB -9.00 dB 2:44 04-A4 - Lagala je da me voli DR7 0.00 dB -8.28 dB 3:03 05-A5 - Suzana DR9 0.00 dB -9.95 dB 2:55 06-B1 - Pusti suzu DR9 0.00 dB -10.12 dB 4:14 07-B2 - Kasno je, nevjero moja DR8 0.00 dB -9.51 dB 3:59 08-B3 - Svako svoje greske placa DR9 0.00 dB -10.52 dB 3:28 09-B4 - Ciganka -------------------------------------------------------------------------------- Number of tracks: 9 Official DR value: DR8 Samplerate: 96000 Hz Channels: 2 Bits per sample: 24 Bitrate: 3270-3365 kbps Codec: FLAC [Hidden Content]
  6. 28 points
    foobar2000 1.3.1 / Dynamic Range Meter 1.1.1 log date: 2021-06-10 08:45:43 -------------------------------------------------------------------------------- Analyzed: Vesna Zmijanac - 09.11.1988. (LP) / Istina - PGP RTB LP 200565 (Vinyl rip by Toolyo 10-06-2021 - final) Audiophile Special Hi-Res -------------------------------------------------------------------------------- DR Peak RMS Duration Track -------------------------------------------------------------------------------- DR10 0.00 dB -12.39 dB 3:10 01-A1 - Eh, da je istina DR10 0.00 dB -13.33 dB 3:55 02-A2 - Kad zamirisu jorgovani DR11 0.00 dB -12.93 dB 3:42 03-A3 - Leto '88 DR10 0.00 dB -14.15 dB 3:42 04-A4 - Kraj DR11 0.00 dB -12.77 dB 3:13 05-A5 - Oluja DR11 0.00 dB -13.05 dB 3:04 06-A6 - Hajde da zaspimo DR10 0.00 dB -12.17 dB 3:58 07-B1 - Kazni me DR10 0.00 dB -12.58 dB 4:21 08-B2 - Kraljica tuge DR10 0.00 dB -11.88 dB 3:41 09-B3 - Ne ide to DR10 0.00 dB -13.14 dB 3:50 10-B4 - U mom srcu DR10 0.00 dB -12.51 dB 3:29 11-B5 - Ne trosi noc -------------------------------------------------------------------------------- Number of tracks: 11 Official DR value: DR10 Samplerate: 96000 Hz Channels: 2 Bits per sample: 24 Bitrate: 2899-3086 kbps Codec: FLAC [Hidden Content]
  7. 28 points
    foobar2000 1.3.1 / Dynamic Range Meter 1.1.1 log date: 2021-06-05 02:41:01 -------------------------------------------------------------------------------- Analyzed: Ipce Ahmedovski & Orkestar N.N. Patala - 1991 (LP) / Luda devojka - Diskos LPD-20001689 (Vinyl rip by Muhamed 2020) Edit, cleanup & remaster by Toolyo 05-06-2021 Audiophile Special Hi-Res AT VM740ML -------------------------------------------------------------------------------- DR Peak RMS Duration Track -------------------------------------------------------------------------------- DR10 0.00 dB -11.59 dB 3:51 01-A1 - Nocna mora DR10 0.00 dB -11.82 dB 3:04 02-A2 - Prodaj suze drugima DR11 0.00 dB -12.10 dB 3:50 03-A3 - Pravde samo hocemo DR11 0.00 dB -11.82 dB 2:35 04-A4 - Luda devojka DR11 0.00 dB -12.26 dB 3:00 05-B1 - Ko seje seme zla DR11 0.00 dB -12.02 dB 3:29 06-B2 - Ime tvoje a prezime moje DR11 0.00 dB -11.49 dB 3:29 07-B3 - Nemoj da me odbijes DR11 0.00 dB -12.12 dB 3:39 08-B4 - I Bog gresi ponekad -------------------------------------------------------------------------------- Number of tracks: 8 Official DR value: DR11 Samplerate: 96000 Hz Channels: 2 Bits per sample: 24 Bitrate: 3058-3213 kbps Codec: FLAC [Hidden Content]
  8. 28 points
    Miroljub Brzakovic Brzi / Prevari me zivot 1991g -------------------------------------------------------------------------------- DR Peak RMS Duration Track -------------------------------------------------------------------------------- DR13 0.00 dB -14.43 dB 2:54 ?-01.Prevari me zivot DR11 0.00 dB -12.20 dB 3:01 ?-02.Pijan sam DR13 0.00 dB -15.24 dB 4:14 ?-03.Evo ti ruka ciganko DR11 0.00 dB -12.95 dB 2:35 ?-04.Nevero moja DR11 0.00 dB -11.45 dB 2:24 ?-05.Mi smo prica ljubavi tuzne DR11 0.00 dB -11.99 dB 3:14 ?-06.Gresnog si me majko rodila DR12 0.00 dB -13.75 dB 4:31 ?-07.Hanuma DR12 0.00 dB -13.56 dB 4:01 ?-08.Ikad postanem sed -------------------------------------------------------------------------------- Number of tracks: 8 Official DR value: DR12 Samplerate: 44100 Hz Channels: 2 Bits per sample: 16 Bitrate: 895 kbps Codec: FLAC ========================================================== [Hidden Content]
  9. 27 points
    Miroljub Brzakovic Brzi / Ja ti prastam 1987g -------------------------------------------------------------------------------- DR Peak RMS Duration Track -------------------------------------------------------------------------------- DR12 0.00 dB -13.02 dB 2:35 ?-01.Ja ti prastam DR12 0.00 dB -14.13 dB 4:08 ?-02.Julske kise DR13 0.00 dB -14.30 dB 3:41 ?-03.Casa srece DR12 0.00 dB -13.91 dB 3:57 ?-04.Mila moja DR12 0.00 dB -13.35 dB 3:22 ?-05.Dve godine DR12 0.00 dB -14.18 dB 3:51 ?-06.Romanela DR14 0.00 dB -14.83 dB 2:14 ?-07.Pozovi me DR12 0.00 dB -13.40 dB 4:51 ?-08.Nisi vise moja simpatija -------------------------------------------------------------------------------- Number of tracks: 8 Official DR value: DR12 Samplerate: 44100 Hz Channels: 2 Bits per sample: 16 Bitrate: 926 kbps Codec: FLAC ========================================================= [Hidden Content]
  10. 26 points
    foobar2000 1.3.1 / Dynamic Range Meter 1.1.1 log date: 2021-06-04 01:35:00 -------------------------------------------------------------------------------- Analyzed: Nedeljko Bilkic & Orkestar Zorana Vlajica - 05.12.1990. (LP) / Stanite godine - PGP RTB LP 202118 (Vinyl rip by Toolyo 04-06-2021) Audiophile Special Hi-Res (M) -------------------------------------------------------------------------------- DR Peak RMS Duration Track -------------------------------------------------------------------------------- DR10 0.00 dB -11.31 dB 4:14 01-A1 - Idem kuci majko DR10 0.00 dB -11.18 dB 3:17 02-A2 - Necu je k'o uspomenu DR11 0.00 dB -12.58 dB 4:48 03-A3 - Asiklije DR10 0.00 dB -11.04 dB 4:06 04-A4 - Stanite godine DR10 0.00 dB -11.45 dB 3:02 05-B1 - Zene, zene DR9 0.00 dB -11.22 dB 3:56 06-B2 - Sta cu kuci DR11 0.00 dB -12.91 dB 3:43 07-B3 - Skitnica DR10 0.00 dB -12.41 dB 3:45 08-B4 - Hej, djul basto -------------------------------------------------------------------------------- Number of tracks: 8 Official DR value: DR10 Samplerate: 96000 Hz Channels: 2 Bits per sample: 24 Bitrate: 2999-3189 kbps Codec: FLAC Richy je bas jucer postavio rip CD-a albuma iz 1993. na kojem ima 7 pjesama (osim pjesme "asiklije") sa ovog LP-a iz 1990. kao bonus. Snimci su - sa ploce, prilicno traljavi sa dosta distorzije i IGD-a. Uporedite pa procijenite sami. Nisam veliki poznavalac Bilkiceve diskografije i da li su to jedini snimci koji postoje na nekom reizdanju na CD-u i da li uopste postoji ovaj album sa mastera. A ovaj rip specijalno je namijenjan za legendu i druga Dimu za kojeg znam da voli Bilkica, od Vrha Norveske do juga Bugarske :)! [Hidden Content]
  11. 25 points
    Mahir Burekovic - 17.12.1984 - Hocu Njeznost Tvojih Ruku - RTB 2113430 LP - WAV - 96000Hz - 24Bit - 4608Kbps - Audio Technica VM740ML 01. Kad Bi Me Voljela 02. Sve Se Plaća 03. Ako Nekad Budeš Sama 04. Nisi Znala Da Odlazim 05. Hoću Nježost Zvojih Ruku 06. Zašto, Zašto Tugovati 07. Nađi Malo Vremena Za Mene 08. Pođi Sa Njim, Ne Žali Me [Hidden Content]
  12. 25 points
    foobar2000 1.3.1 / Dynamic Range Meter 1.1.1 log date: 2018-10-15 01:26:20 -------------------------------------------------------------------------------- Analyzed: Vesna Zmijanac - 25.10.1990. (LP) / Svatovi (Komuna LP-200) Vinyl rip by Toolyo 15-10-2018 - Audiophile Special Hi-Res -------------------------------------------------------------------------------- DR Peak RMS Duration Track -------------------------------------------------------------------------------- DR12 0.00 dB -14.27 dB 4:39 01-A1 - Sto zivota DR11 0.00 dB -14.65 dB 3:56 02-A2 - Svatovi DR13 0.00 dB -14.38 dB 3:29 03-A3 - Znam te odlicno DR12 0.00 dB -13.89 dB 3:15 04-A4 - Ovo u grudima DR13 0.00 dB -14.92 dB 4:00 05-A5 - Sama DR11 0.00 dB -13.57 dB 4:10 06-B1 - Ne kuni ga majko DR11 0.00 dB -12.83 dB 3:29 07-B2 - Vreme je da zivim DR12 0.00 dB -15.12 dB 4:11 08-B3 - Dodji da se druzimo DR11 0.00 dB -14.10 dB 3:19 09-B4 - Zakletva DR13 0.00 dB -14.23 dB 4:14 10-B5 - Svatovi (instrumental) -------------------------------------------------------------------------------- Number of tracks: 10 Official DR value: DR12 Samplerate: 96000 Hz Channels: 2 Bits per sample: 24 Bitrate: 2883-2991 kbps Codec: FLAC [Hidden Content]
  13. 24 points
    Novica Urosevic - 1985 - Ustaj sine,zora je 01. Novica Urosevic - Ustaj sine,zora je 02. Novica Urosevic - Moj drug i ja 03. Novica Urosevic - Gubim volju za zivotom 04. Novica Urosevic - Gde si zivot potrosio 05. Novica Urosevic - Nadam ti se 06. Novica Urosevic - Sizika 07. Novica Urosevic - Ne volim kad gubim 08. Novica Urosevic - Pitas se,pitas Novica Urosevic - 1986 - Ne idi grlom u jagode 01. Novica Urosevic - Od nule zivot pocecu 02. Novica Urosevic - Ne idi grlom u jagode 03. Novica Urosevic - Zasto places devojko 04. Novica Urosevic - Nekog nema medju nama 05. Novica Urosevic - Ulicom glumim srecnika 06. Novica Urosevic - Da si moja devojka 07. Novica Urosevic - Ne padam na zenske suze 08. Novica Urosevic - Nisam mali [Hidden Content]
  14. 23 points
    foobar2000 1.3.1 / Dynamic Range Meter 1.1.1 log date: 2021-06-16 21:49:52 -------------------------------------------------------------------------------- Analyzed: Snezana Savic - 07.03.1995. (LP) / Ljubav je varka - PGP RTS LP 204470 (Vinyl rip by Toolyo 15-06-2021) Audiophile Special Hi-Res (M) -------------------------------------------------------------------------------- DR Peak RMS Duration Track -------------------------------------------------------------------------------- DR10 0.00 dB -11.39 dB 3:15 01-A1 - Prazna soba DR9 0.00 dB -10.51 dB 2:36 02-A2 - Ljubav je varka DR10 0.00 dB -10.98 dB 3:43 03-A3 - Staro drustvo DR10 0.00 dB -12.43 dB 3:55 04-A4 - U sobu mi nikog ne pustaj DR9 0.00 dB -10.64 dB 2:36 05-A5 - Nostalgija DR9 0.00 dB -11.49 dB 3:22 06-B1 - I na moju srecu dosao je red DR9 0.00 dB -10.47 dB 3:14 07-B2 - Sta ce mi vino DR10 0.00 dB -11.37 dB 3:07 08-B3 - Da me ljubis DR10 0.00 dB -11.24 dB 2:42 09-B4 - Igra sa-sa DR9 0.00 dB -10.96 dB 3:21 10-B5 - Topolska 18 -------------------------------------------------------------------------------- Number of tracks: 10 Official DR value: DR10 Samplerate: 96000 Hz Channels: 2 Bits per sample: 24 Bitrate: 2926-3190 kbps Codec: FLAC [Hidden Content]
  15. 23 points
    foobar2000 1.3.1 / Dynamic Range Meter 1.1.1 log date: 2021-05-20 01:31:17 -------------------------------------------------------------------------------- Analyzed: Vesna Zmijanac & "Zar" - 01.05.1992. (LP) Ako me umiris sad - Kamarad LP-500 (Vinyl rip by Toolyo 20-05-2021) Audiophile Special Hi-Res -------------------------------------------------------------------------------- DR Peak RMS Duration Track -------------------------------------------------------------------------------- DR9 0.00 dB -10.65 dB 3:54 01-A1 - Korak po korak DR9 0.00 dB -10.81 dB 3:53 02-A2 - Ako me umiris sad DR10 0.00 dB -11.76 dB 2:59 03-A3 - Davala, ne davala DR9 0.00 dB -11.54 dB 3:31 04-A4 - Tebi je lako DR9 0.00 dB -10.99 dB 3:56 05-A5 - Oprosticu ti DR10 0.00 dB -11.24 dB 4:57 06-B1 - I kao uvek kad zatreba DR8 0.00 dB -10.62 dB 4:06 07-B2 - Ko je srecan a ko tuzan DR10 0.00 dB -12.25 dB 3:37 08-B3 - Zaljuljaj me ko san DR10 0.00 dB -12.83 dB 3:59 09-B4 - Nocas bih htela da te ljubim -------------------------------------------------------------------------------- Number of tracks: 9 Official DR value: DR9 Samplerate: 96000 Hz Channels: 2 Bits per sample: 24 Bitrate: 3022-3169 kbps Codec: FLAC [Hidden Content]
  16. 22 points
    Cazim Colakovic - 17.01.87 - Niko K'o Bosanac - Diskoton LP-8225 LP - WAV - 96000Hz - 24Bit - 4608Kbps - Audio Technica VM740ML 01. Niko K'o Bosanac 02. Što Te Nema 03. Tunga Tjeta 04. Nemam Šta Da Krijem 05. Niko Od Nas Nema Dva Života 06. Kako Ti Neko Može Biti Drag 07. Plakala Si 08. Pustite Me 09. Zbog Nje 10. Majko, Utjeho Moja [Hidden Content]
  17. 22 points
    foobar2000 1.3.1 / Dynamic Range Meter 1.1.1 log date: 2021-05-27 18:11:36 -------------------------------------------------------------------------------- Analyzed: Meho Hrstic - 10.03.1986. (LP) / Grijesila si, grijesila - Diskoton LP-8209 Pressing: Jugoton ULP 1800 (180 gram vinyl) (Vinyl rip by Toolyo 27-05-2021) Audiophile Special Hi-Res -------------------------------------------------------------------------------- DR Peak RMS Duration Track -------------------------------------------------------------------------------- DR9 0.00 dB -10.96 dB 4:03 01-A1 - Grijesila si, grijesila DR10 0.00 dB -11.59 dB 3:28 02-A2 - Razocaran u ljubav DR10 0.00 dB -11.57 dB 3:34 03-A3 - Ona, samo ona DR10 0.00 dB -11.40 dB 3:47 04-A4 - Sanjar DR10 0.00 dB -10.56 dB 3:07 05-B1 - Hocu da se napijem DR10 0.00 dB -11.69 dB 3:43 06-B2 - Lude igre tvoje DR10 0.00 dB -11.20 dB 3:58 07-B3 - Daj mi, daj mi ljubavi DR10 0.00 dB -11.07 dB 3:34 08-B4 - Dosta si me varala -------------------------------------------------------------------------------- Number of tracks: 8 Official DR value: DR10 Samplerate: 96000 Hz Channels: 2 Bits per sample: 24 Bitrate: 2980-3056 kbps Codec: FLAC [Hidden Content]
  18. 21 points
    Gordana Stojicevic / Nisi znao da me cuvas 1983g -------------------------------------------------------------------------------- DR Peak RMS Duration Track -------------------------------------------------------------------------------- DR13 -0.02 dB -13.97 dB 4:22 ?-01.Nisi znao da me cuvas DR12 -0.02 dB -13.40 dB 3:13 ?-02.Moram da mu prastam DR13 -0.01 dB -14.61 dB 3:00 ?-03.Kceri Bulka aber kazi DR13 0.00 dB -15.30 dB 5:39 ?-04.Okreni se kad od mene podes DR13 0.00 dB -14.93 dB 3:37 ?-05.Dance DR13 0.00 dB -14.20 dB 4:04 ?-06.Zagrli me i oprosti DR11 -0.14 dB -14.00 dB 3:17 ?-07.Reci da li me volis DR13 0.00 dB -17.12 dB 5:05 ?-08.Zagrlicu uspomenu -------------------------------------------------------------------------------- Number of tracks: 8 Official DR value: DR13 Samplerate: 48000 Hz Channels: 2 Bits per sample: 16 Bitrate: 767 kbps Codec: FLAC ============================================================== [Hidden Content]
  19. 21 points
    Meho Hrstic - Slomljeno si, srce moje 10.11.1988 DISKOTON LP-8330 LP - Ivan LP rip - Ivan LP rip - FLAC/LOSSLESS A1.Slomljeno si, srce moje A2.Zasto sam se rodio A3.Hej, zivote, sto me kazni A4.Neka, neka, nek se zna B1.Nocas pijem svoje suze B2.Zbogom, zbogom, nevero moja B3.Kazi, druze, bol i jad B4.Svadba joj je u nedelju [Hidden Content]
  20. 21 points
    LP izdat 1990 godine u produkciji PGP RTB, obrada wav 48.000 KHz 16 bit, veličina fajla 212,25 MB a1. Zabranjeno a2. Sutra biće bolje a3. Tugo moja, željo moja a4. Bez tebe b1. Prelila se čaša b2. Ljubav na prvi pogled b3. Još uvek te kradem b4. Hej, gitaro, stani [Hidden Content]
  21. 21 points
    Aca Lukas - 1998 - Jedno vece u kafani- Cue, Wav 01. Pitaju me pitaju [0:01:41.13] 02. Jelena [0:04:08.60] 03. Ti nisi ti [0:03:22.47] 04. Da mi je [0:03:15.03] 05. Oprosti mi sto te volim [0:02:32.42] 06. Volio bih da te ne volim [0:01:55.55] 07. Strah me da te volim [0:02:09.15] 08. Dao sam ti dusu [0:01:40.50] 09. Ne bi mu zubi [0:02:05.20] 10. Zagrli me [0:03:07.68] 11. Nocas mi se ne spava [0:03:25.50] 12. Zena [0:02:43.27] 13. Pevaj mi o njoj [0:03:01.35] 14. Neznanka [0:01:49.23] 15. Nek me nije [0:02:32.30] 16. Ti meni lazes sve [0:02:33.20] 17. Samo nju ne kuni majko [0:02:38.10] 18. Dajte vina [0:02:23.52] 19. Pesma od bola [0:03:22.58] [Hidden Content] Aca Lukas - 1999 - Drugo vece u kafani - Cue,Wav 01. Bez duse lepa [0:04:01.37] 02. Topim se kao sneg [0:03:09.74] 03. Tamburasi sa Dunava-Lazu, lazu me... [0:07:30.39] 04. Samo stara navika [0:04:14.35] 05. Kad umrem kad me ne bude [0:04:18.45] 06. Lazes zlato [0:03:53.06] 07. Lipe cvatu [0:04:41.00] 08. Za vencanim stolom [0:07:03.47] 09. Sunce brze zadji [0:05:05.65] 10. Uspeo sam u zivotu [0:03:03.58] 11. Sine moj [0:04:01.33] 12. Kraljica budi-Iz te case svi smo pili-Luckasta si ti-Kafana je moja sudbina-Sudbina me na put salje-Pepeo i dim [0:11:14.58] [Hidden Content] Aca Lukas - 1999 - Jos sam tu (za drugove) - Cue, wav 01. Zivot kratko traje-Uvele ruze-Ucini bar jedan pogresan korak-Vetrovi me lome-Mix [0:06:34.04] 02. Sve sto zelim u ovom trenutku [0:02:26.52] 03. Vranjanka [0:05:26.19] 04. Oprosti, izvini-Ciganka-Ramo-Mix [0:07:01.41] 05. Nazdravite drugovi [0:04:30.01] 06. Evo banke ciganko [0:03:07.08] 07. Tudjina [0:04:02.27] 08. Zbog jedne divne crne zene [0:04:45.02] 09. Voleo sam tvoje oci [0:03:27.07] 10. Pisi mi fratelo [0:02:22.42] 11. Crni leptiri [0:03:09.06] 12. Samo jedan dan zivota [0:03:15.18] 13. Voleo je zenu svog zivota [0:03:32.48] 14. Stanica, podlugovi [0:03:10.63] 15. Jorgovani [0:04:12.05] 16. Zuto lisce ljubavi-A sad "Adio" [0:05:48.26] 17. Vrati se [0:04:18.63] [Hidden Content] Aca Lukas - 1999 - Koncert uzivo - Cue,wav 01. Licna Karta-Ja zivim sam [0:08:29.65] 02. Ako su tvoja usta otrov sipala [0:03:09.40] 03. Ponos i laz [0:03:49.48] 04. Nece mama doci [0:03:31.58] 05. Kuda idu ljudi kao ja-Sta ucini crni gavrane-Pesma od bola [0:09:17.44] 06. Case moje polomljene [0:02:39.56] 07. Ja i ti [0:03:13.29] 08. Bele ruze [0:03:17.21] 09. Samo da izdrzi srce [0:04:04.61] 10. Ne radjaj gresnike-Umri u samoci [0:06:36.54] 11. Miris tamjana [0:03:51.34] 12. Kafana na balkanu [0:04:39.44] 13. Ona je prica zivota moga-Neznanka-Plakala je, molila me [0:05:34.37] 14. Luckasta si ti-Vrati se Neno-Nemoze nam nitko nista-Prokleta je Amerika [0:08:42.44] [Hidden Content] Aca Lukas - 1999 - Zora beli - Cue, wav 01. Umoran sam od zivota [0:04:04.46] 02. Nije mene duso ubilo-Obrisi suze mala moja [0:06:20.71] 03. Ne idi od mene-Cudna zena bese vera-Vrati se Neno-Oprosti, izvini-O, jarane, jarane-Sudbina me na put salje-Neznanka [0:20:26.00] 04. Sinoc sam pola kafane popio-Plavi slon-Ruzice, Ruzo, Ruska-Pjevam danju, pjevam novu-Zaboravi [0:13:44.46] 05. Sve sto zelim u ovom trenutku- [0:03:07.41] 06. Daj ne pitaj-Jedina moja [0:07:39.42] 07. Pijem-Secas li se one noci-Pesme moje [0:10:24.14] [Hidden Content] Aca Lukas - 2000 - The best of 2 - Cue, wav 01. Kafana na Balkanu [0:04:12.22] 02. Umoran sam od zivota [0:04:04.25] 03. Pijem da je zaboravim [0:04:26.47] 04. Uspeo sam u zivotu [0:03:03.50] 05. Zivot kratko traje [0:01:12.49] 06. Ucini nesto, zivote [0:01:18.00] 07. Ucini bar jedan pogresan korak [0:01:19.66] 08. Vetrovi me lome [0:02:54.25] 09. Pijem [0:03:02.12] 10. Sjecas li se one noci [0:03:53.27] 11. Pesme moje [0:03:21.11] 12. Bele ruze [0:03:27.50] 13. Vranjanka [0:06:02.27] 14. Lele, lele [0:05:40.33] 15. Vera [0:02:17.21] 16. Vrati se, Neno [0:02:57.66] 17. Zena prijatelja mog [0:02:33.32] 18. Oj, jarane, jarane [0:01:56.39] 19. Sudbina me na put salje [0:01:53.73] 20. Neznanka [0:02:43.29] 21. Zena prijatelja mog (x2) [0:02:18.42] 22. Ja volim majko ciganku [0:02:39.47] 23. Ramo, Ramo [0:02:05.61] [Hidden Content] Aca Lukas - 2005 - Kompilacija - Cue,wav 01. Ja ne pijem [0:03:11.52] 02. Kuda idu ljudi kao ja [0:02:54.11] 03. Ti meni lazes sve [0:02:35.23] 04. Tamburasi sa Dunava - Lazu me [0:07:30.37] 05. Sipajte mi jos jedan whiskey [0:03:56.53] 06. Evo banke ciganko [0:03:09.43] 07. Samo nju ne kuni majko [0:02:40.12] 08. Pevaj mi o njoj [0:03:03.37] 09. Pesma od bola [0:03:22.48] 10. Neznanka [0:01:51.26] 11. Ne idi od mene - Cudna zena je bila vera [0:20:25.70] 12. Moj golube [0:03:39.31] 13. Vranjanka [0:05:32.55] 14. Uspio sam u zivotu [0:03:03.72] 15. Sine moj [0:04:03.33] 16. Za vjencanim stolom [0:07:01.32] [Hidden Content] Aca Lukas - 1999 - The Best Of - Wav 01. Licna Karta 02. Kuda Idu Ljudi Kao Ja 03. Nece Mama Doci 04. Miris Tamjana 05. Umri U Samoci 06. Pitaju Me Pitaju 07. To Nisi Ti 08. Oprosti Mi Sto Te Volim 09. Strah Me Da Te Volim 10. Voleo Bih Da Te Nevolim 11. Ponos I Laz 12. Pesma Od Bola 13. Sta Ucini Crni Gavrane 14. Ja Zivim Sam 15. To Meni Lazes Sve 16. Neznanka 17. Pevaj Mi O Njoj 18. Dajte Vina 19. Imate Li Dusu Tamburasi 20. Ako Su Tvoja Usta Otrov Sipala 21. Vrati Nam Se Druze 22. Ne RaDJaj Gresnike 23. Soba Za Plakanje [Hidden Content] Aca Lukas - 2000 - Rodjendan - Wav Aca Lukas - [Rodjendan #01] Rodjendan Aca Lukas - [Rodjendan #02] Sve su zene moje Aca Lukas - [Rodjendan #03] Niko 1, 2, 3 Aca Lukas - [Rodjendan #04] Jos pomisljam na najgore Aca Lukas - [Rodjendan #05] Nije ti ovo Amerika Aca Lukas - [Rodjendan #06] Nazalost Aca Lukas - [Rodjendan #07] Usluga za uslugu Aca Lukas - [Rodjendan #08] Zapisi mi broj Aca Lukas - [Rodjendan #09] Sto si tuzan prijatelju Aca Lukas - [Rodjendan #10] Dok ti u kafani pijes druze Aca Lukas - [Rodjendan #11] Pesma od bola Aca Lukas - [Rodjendan #12] Ja zivim sam Aca Lukas - [Rodjendan #13] Sta ucini crni gavrane Aca Lukas - [Rodjendan #14] Licna karta Aca Lukas - [Rodjendan #15] Nece mama doci Aca Lukas - [Rodjendan #16] Umri u samo Aca Lukas - [Rodjendan #17] Ne radjaj gresnike Aca Lukas - [Rodjendan #18] Ako su tvoja usta Aca Lukas - [Rodjendan #19] Kuda idu ljudi kao ja Aca Lukas - [Rodjendan #20] Bele ruze [Hidden Content] Aca Lukas - 1996 - Pesme Od Bola - Wav Aca Lukas - [Pesme Od Bola #01] Pesma Od Bola Aca Lukas - [Pesme Od Bola #02] Ja Zivim Sam Aca Lukas - [Pesme Od Bola #03] Ja I Ti Aca Lukas - [Pesme Od Bola #04] Miris Tamjana Aca Lukas - [Pesme Od Bola #05] Sta Ucini Crni Gavrane Aca Lukas - [Pesme Od Bola #06] Kad Odu Svatovi Aca Lukas - [Pesme Od Bola #07] Ne Ljuti Se Krcmaru Aca Lukas - [Pesme Od Bola #08] Deset Ruku Aca Lukas - [Pesme Od Bola #09] Ponos I Laz Aca Lukas - [Pesme Od Bola #10] Ne Slusaj Majko Aca Lukas - [Pesme Od Bola #11] Lisica Aca Lukas - [Pesme Od Bola #12] Kuda Idu Ljudi Kao Ja [Hidden Content] Aca Lukas - 1998 - Licna karta - Wav Aca Lukas - [Licna karta #01] Licna karta Aca Lukas - [Licna karta #02] Nece mma doci Aca Lukas - [Licna karta #03] Umri u samoci Aca Lukas - [Licna karta #04] Kafana na Balkanu Aca Lukas - [Licna karta #05] Ako su tvoja usta otrov sipala Aca Lukas - [Licna karta #06] Soba za plakanje Aca Lukas - [Licna karta #07] Vrati nam se druze moj Aca Lukas - [Licna karta #08] Ne radjaj gresnike Aca Lukas - [Licna karta #09] Imate li dusu tamburasi Aca Lukas - [Licna karta #10] Kuda idu ljudi kao ja Aca Lukas - [Licna karta #11] Ponos i laz Aca Lukas - [Licna karta #12] Miris tamjana Aca Lukas - [Licna karta #13] Ja zivim sam Aca Lukas - [Licna karta #14] Sta ucini crni gavrane Aca Lukas - [Licna karta #15] Pesma od bola [Hidden Content]
  22. 20 points
    foobar2000 1.3.1 / Dynamic Range Meter 1.1.1 log date: 2021-06-08 03:12:35 -------------------------------------------------------------------------------- Analyzed: Bijelo Dugme - 17.11.1986. (LP) / Pljuni i zapjevaj moja Jugoslavijo Diskoton LP-8244 Dijamantska Pressing: Jugoton ULP 1928 (Vinyl rip by Toolyo 07-06-2021) Audiophile Special Hi-Res -------------------------------------------------------------------------------- DR Peak RMS Duration Track -------------------------------------------------------------------------------- DR10 0.00 dB -12.38 dB 5:16 01-A1 - Pljuni i zapjevaj moja Jugoslavijo DR11 0.00 dB -14.03 dB 4:18 02-A2 - Zamisli DR12 0.00 dB -14.72 dB 6:07 03-A3 - Nocas je k'o lubenica pun mjesec iznad Bosne DR13 0.00 dB -15.64 dB 4:44 04-A4 - Te noci kad umrem, kad odem, kad me ne bude DR11 0.00 dB -13.60 dB 4:10 05-B1 - A i ti me iznevjeri DR11 0.00 dB -12.94 dB 3:42 06-B2 - Zar ne vidis da pravim budalu od sebe DR11 0.00 dB -12.25 dB 4:42 07-B3 - Hajdemo u planine DR12 0.00 dB -14.47 dB 3:54 08-B4 - Pjesma za malu pticu DR11 0.00 dB -13.25 dB 3:51 09-B5 - Ruzica si bila, sada vise nisi -------------------------------------------------------------------------------- Number of tracks: 9 Official DR value: DR11 Samplerate: 96000 Hz Channels: 2 Bits per sample: 24 Bitrate: 2912-3096 kbps Codec: FLAC [Hidden Content]
  23. 20 points
    foobar2000 1.3.1 / Dynamic Range Meter 1.1.1 log date: 2021-05-31 04:17:26 -------------------------------------------------------------------------------- Analyzed: Vera Matovic & Orkestar M.A. Kemisa - 23.05.1988. (LP) / Samo za tebe zivim - Diskoton LP-8313 (Vinyl rip by Toolyo 31-05-2021) Audiophile Special Hi-Res -------------------------------------------------------------------------------- DR Peak RMS Duration Track -------------------------------------------------------------------------------- DR11 0.00 dB -12.24 dB 3:12 01-A1 - Volim te ko Boga DR10 0.00 dB -10.79 dB 4:14 02-A2 - Sta ce tebi moje dobar dan DR11 0.00 dB -12.04 dB 4:07 03-A3 - On ili niko DR10 0.00 dB -11.42 dB 4:09 04-A4 - Idem s tobom pa kako mi bude DR9 0.00 dB -10.72 dB 3:18 05-B1 - Samo za tebe zivim DR11 0.00 dB -11.60 dB 4:55 06-B2 - Niko nam nista ne moze DR10 0.00 dB -11.23 dB 2:47 07-B3 - Plavi cuperak DR10 0.00 dB -11.55 dB 3:45 08-B4 - Dosao mi komsija -------------------------------------------------------------------------------- Number of tracks: 8 Official DR value: DR10 Samplerate: 96000 Hz Channels: 2 Bits per sample: 24 Bitrate: 3000-3089 kbps Codec: FLAC [Hidden Content]
  24. 20 points
    LP izdat 1989 godine u produkciji RTV Ljubljana, obrada wav 48.000 KHz 16 bit, veličina fajla 268,06 MB a1. Pričo moja stara a2. Milujem te pogledima a3. Postali smo jedan život a4. Vetar tuge a5. Vodi me njoj b1. Nemam ništa s njom b2. Što si došla b3. Ovo dete na tebe me seća b4. Sanjao sam da se ženim [Hidden Content]
  25. 20 points
    NADA Topčagić - Za Uspomenu // 1975-1996 PROMO COMPILATION // CD1 01 ©1990. PSUJEM TE ŽIVOTE (M. Ćajić - M. Mandić - R. Ćajić) 02 ©1992. PRSTEN ZA USPOMENU (B. Bekić - M. Janković - A. S. Ilić) 03 ©1989. ZBOG TEBE (Ž. Ivković - S. Papkov / S. Nikolić - D. Stojković Bosanac) 04 ©1990. AKO MI SRCE PREPUKNE (M. Marković - J. Zabrdar - M. Marković) 05 ©1990. JUTRO JE (M. Marković - M. Marković / R. Stefanović - M. Marković) 06 ©1994. PROBUDI SRCE (D. Janković Mirijevac - Đ. Janković - D. J. Mirijevac) 07 ©1990. ZAR TI, ZAR TI (R. Jovanović - R. Matijević - A. Ilić / N. Nikolić) 08 ©1987. NEŽNO, NEŽNIJE (D. Aleksandrić - M. Ž. Ilić - D. Aleksandrić) 09 ©1989. LUDA GLAVO (M. Čajić - R. Čajić - D. Stojković Bosanac) 10 ©1994. TO, TO, IDEMO (B. Lazović - M. Bojović - N. Nikolić Patalo) 11 ©1992. TRI ŽIVOTA SRCA TRI (Z. Starčević - S. Demirović - Z. Starčević) 12 ©1994. LJUBOMORNA SAM (Z. Matić - Z. Matić - N. Nikolić Patalo) 13 ©1990. KOJU IGRU IGRAŠ (B. Bekić - M. Janković - A. Ilić / N. Nikolić) 14 ©1982. TREBA MI RAME TVOJE (D. Aleksandrić - S. Jovanović - D. Aleksandrić) 15 ©1985. IZVINI, DUŠO, IZVINI (D. Aleksandrić - R. Todorović - D. Aleksandrić) 16 ©1989. LUDUJ, LUDUJ SRCE MOJE (M. Čajić - M. Mandić - D. Stojković Bosanac) 17 ©1990. NEMA GA (M. Marković - Z. Matić - M. Marković) 18 ©1994. ZNAM, KRIVA SAM (D. Janković Mirijevac - J. Nedeljković / S. Mladenović - D. J. Mirijevac) 19 ©1996. SLAVSKI KOLAČ (M. Matejić - M. Matejić - N. Nikolić Patalo / N. Nikolić) 20 ©1988. NA SRCU MI LEŽIŠ (M. Mijatović - R. Babić - M. Mijatović) 21 ©1988. UZALUD SE TRUDIŠ /Vogošča '88/ (R. Krstić - M. Jovičić - P. Simonović) 22 ©1996. POŽURI LJUBAVI (P. Vuković - P. Vuković - N. Nikolić Patalo / N. Nikolić) CD2 01 ©1984. MIHAJLO, MIKI, MIKI (G. Nikolovski - G. Nikolovski - D. Stojković) 02 ©1983. POMOZI MI (N. Urošević - N. Urošević - D. Aleksandrić) 03 ©1984. ZOVEM TE, ZOVEM (M. Marković - R. Mudrinić - M. Marković) 04 ©1977. ZAKLANJAŠ MI SUNCE (P. Vuković) 05 ©1983. ODLUČI SE (N. Urošević - N. Urošević - D. Aleksandrić) 06 ©1988. PLAKAĆU SUTRA (M. Mijatović - R. Babić - M. Mijatović) 07 ©1987. GODINE IDU (R. Raičević - M. Cvetković - L. Ristovski) 08 ©1988. SITNICE ŽIVOT ZNAČE (R. Raičević - R. Raičević - S. Bojić) 09 ©1983. OPET SE ZALJUBLJUJEM U TEBE (D. Aleksandrić) 10 ©1987. ZABORAVI (D. Aleksandrić - R. Mudrinić - D. Aleksandrić) 11 ©1979. ŽIVOT JE LEP DOK SI MLAD (P. Vuković) 12 ©1989. VOLELA SAM KOLIKO SAM MOGLA (P. Vuković - S. Papkov / S. Nikolić - D. Stojković Bosanac) 13 ©1987. RAZBI JOŠ JEDNU ČAŠU (D. Aleksandrić - S. Nikolić - D. Aleksandrić) 14 ©1990. DOĐI DA SE ISPLAČEMO (R. Jovanović - D. Simić - A. Ilić / N. Nikolić) 15 ©1985. KAKO JE LEPO IMATI TEBE (P. Vuković - S. Vuković - D. Aleksandrić) 16 ©1990. EJ ŠTA DA RADIM (R. Ćajić - M. Mandić - R. Ćajić) 17 ©1985. VRAGOLANKA (D. Aleksandrić - R. Todorović - D. Aleksandrić) 18 ©1978. NEMOJ, NEMOJ, LJUBAVI, DA NAS SITNICA RASTAVI (P. Vuković) 19 ©1985. NE MOŽEŠ BEZ MENE (R. Graić - R. Graić - D. Aleksandrić) 20 ©1983. AKO SE BUDEMO VOLELI [O, Da, Da, Da...] (P. Vuković - S. Vuković - P. Vuković ) 21 ©1988. NOĆAS MI SE ŽIVOT RUŠI (P. Negovanović - M. Bogosavljević - S. Bojić) Urednik izdanja: Gabriel Grafički dizajn: Alex1985 Postprodukcija: Alex1985 & Gabriel Mastering: Alex1985 Preuzmi ::> BluRay ::> Preuzmi ::> DVD-Audio ::> Preuzmi ::> mp3@320 Preuzmi ::> OMOT [Hidden Content]
  26. 20 points
    foobar2000 1.3.1 / Dynamic Range Meter 1.1.1 log date: 2021-05-21 12:42:16 -------------------------------------------------------------------------------- Analyzed: Jami & "Futa band" - 09.12.1993. (LP) / Cokolada - PGP RTS LP 203572 (Vinyl rip by Toolyo 21-05-2021) Audiophile Special Hi-Res -------------------------------------------------------------------------------- DR Peak RMS Duration Track -------------------------------------------------------------------------------- DR11 0.00 dB -12.34 dB 3:23 01-A1 - Cokolada DR10 0.00 dB -10.83 dB 3:00 02-A2 - Promenicu sve DR11 0.00 dB -11.88 dB 3:13 03-A3 - Zbog tebe bi vila ostala bez krila DR11 0.00 dB -12.35 dB 2:49 04-A4 - Poljubac zivota DR10 0.00 dB -12.04 dB 3:37 05-A5 - Nek' ide s njom DR12 0.00 dB -12.94 dB 3:38 06-B1 - Posalji mi jastuk na kom' sanjas DR11 0.00 dB -12.31 dB 3:13 07-B2 - Sto pozelis dacu ti sve DR11 0.00 dB -12.25 dB 4:06 08-B3 - Sta trazis ti u srcu mom DR10 0.00 dB -12.17 dB 3:56 09-B4 - Istina -------------------------------------------------------------------------------- Number of tracks: 9 Official DR value: DR11 Samplerate: 96000 Hz Channels: 2 Bits per sample: 24 Bitrate: 3216-3342 kbps Codec: FLAC [Hidden Content]
  27. 19 points
    foobar2000 1.3.1 / Dynamic Range Meter 1.1.1 log date: 2021-06-17 02:36:23 -------------------------------------------------------------------------------- Analyzed: Vera Matovic & Orkestar Mise Mijatovica - 15.03.1991. (LP) Ziveli zaljubljeni - PGP RTB LP 202312 (Vinyl rip by Toolyo 17-06-2021) Audiophile Special Hi-Res (M) -------------------------------------------------------------------------------- DR Peak RMS Duration Track -------------------------------------------------------------------------------- DR12 0.00 dB -13.96 dB 3:27 01-A1 - Ej, suzo, progovori DR11 0.00 dB -13.42 dB 2:49 02-A2 - Kad te volim, sto da patim DR11 0.00 dB -12.77 dB 3:49 03-A3 - Zovem, zovem DR12 0.00 dB -13.24 dB 3:18 04-A4 - Ziveli zaljubljeni DR12 0.00 dB -13.72 dB 3:06 05-B1 - Dva jastuka bela DR11 0.00 dB -12.33 dB 3:03 06-B2 - Bila je nedelja DR12 0.00 dB -13.02 dB 3:05 07-B3 - Daj mi usne, daj DR12 0.00 dB -13.16 dB 3:43 08-B4 - Obraza mi i ociju -------------------------------------------------------------------------------- Number of tracks: 8 Official DR value: DR12 Samplerate: 96000 Hz Channels: 2 Bits per sample: 24 Bitrate: 2941-3046 kbps Codec: FLAC [Hidden Content]
  28. 19 points
    LP izdat 1995 godine u produkciji PGP RTS, obrada wav 48.000 KHz 16 bit, veličina fajla 253,97 MB a1. Prazna soba a2. Ljubav je varka a3. Staro društvo a4. U sobu mi nikog ne puštaj a5. Nostalgija b1. I na moju sreću došao je red b2. Šta će mi vino b3. Da me ljubiš b4. Igra sa-sa b5. Topoloska 18 [Hidden Content]
  29. 19 points
    01. Ljuba Alicic - Zalosna ti majka 02. Ljuba Alicic - Kuda idu zaljubljene devojke 03. Ljuba Alicic - Kazna je nagrada za ljude 04. Ljuba Alicic - Samo jedan dan 05. Ljuba Alicic - Nema takve rakije 06. Ljuba Alicic - Nisam ja pijan mala 07. Ljuba Alicic - Zivote djavole 08. Ljuba Alicic - Ja sam bolestan 09. Ljuba Alicic - Trebas mi 10. Ljuba Alicic - Placite samnom jesenje kise [Hidden Content]
  30. 19 points
    Slavko Banjac - [Dodir kao led #01] Dodir kao led Slavko Banjac - [Dodir kao led #02] Kasno je Slavko Banjac - [Dodir kao led #03] Niko mi te ne moze oteti iz duse Slavko Banjac - [Dodir kao led #04] Uzmite dusu,uzmite sve Slavko Banjac - [Dodir kao led #05] Gde si sad ti Slavko Banjac - [Dodir kao led #06] Ne verujem lepim zenama Slavko Banjac - [Dodir kao led #07] Ako te lazem ubio me Bog Slavko Banjac - [Dodir kao led #08] Daleko negde ,ko zna gde Slavko Banjac - [Dodir kao led #09] Nek do vraga odu kafane i zene [Hidden Content]
  31. 19 points
    Neki to Vole Vruce 2010 (Zlatna Kolekcija 2 Cd) CD 1 (01) California (02) Teška Vremena, Prijatelju (03) Kakva Noć (Svi Na Ples) (04) Što Će Taj Čovjek Tu (05) Ti Nisi Žna Za Sva Vremena (06) Djevojko (07) Sve Me Podsjeća Na Nju (08) Tvoja Haljina Moja Zastava (09) Ne Znam Za Sebe (10) Skini Sve Sa Sebe (11) Ti Si Moja Sreća (12) Ovo Nebo Sve Zna (13) Ne Zaboravi (14) Nudiš Mi Razloge Za Kraj (15) Oh Yeah (16) Mama (17) Slatka Sestrice (18) Anđeo Požude (19) Nikolina (20) Kad Lavina Krene (21) Budi Prijatelj Moj CD 2 (01) Jeans Generacija (02) Na Dlanu Svijet (03) Nisi Više Curica (04) Bojler (05) Medu Moj I Šećeru (06) Reci Da (07) Ti Si Žena Ti Si Bog (08) Tko Te Ne Zna (09) Snježana (10) Zagrli Me Nježno (11) Ti Si Ta (12) Za Nju, Zbog Nje (13) Opasan Plan (14) Smijeh I Suze (15) Onu Noć (16) Boja Noći (17) Ljubavi (18) Ritam Tuge Download [Hidden Content] [Hidden Content] [Hidden Content]
  32. 18 points
    Mile Kitic 2021 (Klinac) Single wav + matrica (mp3) Mile Kitic - Klinac (wav) Mile Kitic - Klinac (Matrica mp3) [Hidden Content]
  33. 18 points
    01. Nedeljko Bilkic - Jedna suza u mom vinu cuti 02. Nedeljko Bilkic - Ponovo smo skupa 03. Nedeljko Bilkic - Pijan od tvoje ljubavi 04. Nedeljko Bilkic - Sta je zivot,casa vina 05. Nedeljko Bilkic - Beli grade,beli vinograde 06. Nedeljko Bilkic - Boze ne ostavi me 07. Nedeljko Bilkic - Da mi daju Nis i Vranje 08. Nedeljko Bilkic - Oj Ruzice 09. Nedeljko Bilkic - Majko puti mene da ja idem kuci 10. Nedeljko Bilkic - Necu je ko uspomenu 11. Nedeljko Bilkic - Stanite godine 12. Nedeljko Bilkic - Zene,zene 13. Nedeljko Bilkic - Sta cu kuci 14. Nedeljko Bilkic - Skitnica 15. Nedeljko Bilkic - Hej,djul basto [Hidden Content]
  34. 18 points
    CD: Savo Radusinovic - The best of 01. Samo ti mozes da me smiris [0:04:41.43] 02. Stani najzad senko moja [0:05:03.38] 03. Jedno pismo, jedna suza [0:04:47.34] 04. Uvek sam s' tobom na pola puta [0:05:23.23] 05. Ako zelis da me vidis [0:03:56.26] 06. Ko te nocas miluje po ruci [0:04:22.26] 07. Mnogo sam te pozeleo [0:04:38.27] 08. Ne ljubi skitnicu [0:04:27.39] 09. Jos smo deca [0:04:44.27] 10. Zvonite zvona [0:03:27.40] 11. Covek s koferom u ruci [0:04:54.59] 12. Jerina [0:04:38.29] 13. Kome li se sreca smeje [0:04:49.01] 14. Ja ne zalim ni tebe ni sebe [0:04:59.72] 15. Kako si mogla [0:05:05.00] 16. Sreca u jednom danu [0:04:13.33] 17. Zbog tebe sam budan [0:04:29.20] [Hidden Content]
  35. 17 points
    Grupa ''Bolero'' ‎– The Best Of, Vol. 1 Label: Branba ‎– none Format: CD, Compilation Country: Bosnia & Herzegovina Released: 2019 Genre: Rock, Pop Style: Pop Rock 1 Recital (Intro) 2 Krčmarska Moskva 3 Galebovi 4 Jelena 5 O Jesenjinu 6 Na Kraju Slavlja 7 Sviri Harmoniko Tugo, Tugo 8 Koščate Ruke 9 Sjećanja 10 Misli Na Mene... [Hidden Content]
  36. 17 points
    Ceca Raznatovic - [#01] Nije Monotonija Ceca Raznatovic - [#02] Necu Da Budem K'o Masina Ceca Raznatovic - [#03] Fatalna Ljubav Ceca Raznatovic - [#04] Ko Nekad U Osam Ceca Raznatovic - [#05] Sta Je To U Tvojim Venama Ceca Raznatovic - [#06] Ne Racunaj Na Mene Ceca Raznatovic - [#07] Ustani, Budi Se Ceca Raznatovic - [#08] Beograd Ceca Raznatovic - [#09] Kuda Idu Ostavljene Devojke Ceca Raznatovic - [#10] Kukavica Ceca Raznatovic - [#11] Oprosti Mi Suze Ceca Raznatovic - [#12] Da Li To Ljubav Pravi Od NaS Slabice Ceca Raznatovic - [#13] Sto Si Tako Zaboravan Ceca Raznatovic - [#14] Ja Jos Spavam U Tvojoj Majici Ceca Raznatovic - [#15] Popi Me Kao Lek [Hidden Content] Pjesme su umiksane. Ovaj CD je davnoooo otisao Gabrijelu, samo sam ga tada davno jednom postavio i vise taj cd nisam nigdje vidjao osim sto je netko postavio na Discogs
  37. 17 points
    Nihad Kantic Sike - [Slijepi putnik #01] Imala je dara Nihad Kantic Sike - [Slijepi putnik #02] Kad bi ti zivot vratio bar pola Nihad Kantic Sike - [Slijepi putnik #03] Moje pjesme,moji snovi Nihad Kantic Sike - [Slijepi putnik #04] Glavna uloga Nihad Kantic Sike - [Slijepi putnik #05] Boze,ne daj mi da zaspim Nihad Kantic Sike - [Slijepi putnik #06] Miljenik zivota Nihad Kantic Sike - [Slijepi putnik #07] Svako grijesi Nihad Kantic Sike - [Slijepi putnik #08] Zarobljenik tuge Nihad Kantic Sike - [Slijepi putnik #09] Srce ti je led Nihad Kantic Sike - [Slijepi putnik #10] Kako starim Nihad Kantic Sike - [Slijepi putnik #11] Odlazim daleko Nihad Kantic Sike - [Slijepi putnik #12] Sanjao sam Nihad Kantic Sike - [Slijepi putnik #13] Zena mog zivota Nihad Kantic Sike - [Slijepi putnik #14] Zakuni se da me volis [Hidden Content]
  38. 17 points
    01. Seki Bihorac - Vjeruj sad je kraj 02. Seki Bihorac - Kreni,kreni 03. Seki Bihorac - Malo mi te malo 04. Seki Bihorac - Zadnja ladja 05. Seki Bihorac - Moja muka,moja bruka 06. Seki Bihorac - Sve me stiglo 07. Seki Bihorac - Varalice lazljivice 08. Seki Bihorac - Plavooka ljepotica 09. Seki Bihorac - Svirajte nocas 10. Seki Bihorac - Junak 11. Seki Bihorac - Kreni,kreni (Remix dj-mail) 12. Seki Bihorac - Ti si meni bila sve (Bonus) 13. Seki Bihorac - Ako me ne volis (Bonus) 14. Seki Bihorac - Ima malo srece (Bonus) 15. Seki Bihorac - Vrati barem pola (Bonus) 16. Seki Bihorac - Isuvise slab (Bonus) 17. Seki Bihorac - Lutaj srce moje (Bonus) 18. Seki Bihorac - Kakav je to zivot (Bonus) 19. Seki Bihorac - Kroz veo ti vidim suze (Bonus) [Hidden Content]
  39. 17 points
    Zoran Kalezic - 22.06.1987 - Ne Tocite Vina - Diskoton LP-8270 LP - WAV - 96000Hz - 24Bit - 4608Kbps - Audio Technica VM740ML 01. Ne Točite Vina 02. Hej, Mladosti 03. Ne Veruj Im Šta Ti Kažu 04. Ne Dam Jutru Bez Tebe Da Svane 05. Hiljadu Nežnih Reči 06. Ovo Je Ljubav 07. Nek Ti Sunce Sja 08. Zaboraviću Te [Hidden Content]
  40. 16 points
    Nole Zdravkovic - 26.04.1989 - Bol Bolujem - SUZY LP-570 LP - WAV - 96000Hz - 24Bit - 4608Kbps - Audio Technica VM740ML 01. Bol Bolujem 02. Imao Sam Jednu Ljubav 03. Beograde 04. Moj Život 05. Ne Može Nas Niko Zavaditi 06. Sto Puta Je Čaša Mene 07. Naviko Sam Ja Na Noćni Život 08. Ne Budite Mene 09. Igraj, Pevaj Novi Rip u WAV Formatu - 14.06.2021 [Hidden Content]
  41. 16 points
    Suzana Jovanovic 2021 (Ne Idi) Grand 01 - Ne Idi, Ne Idi 02 - Ptice 03 - Sokakom 04 - Usamljena Zver 05 - Četiri Strane Sveta 06 - Kontra 07 - Šampanjac I Ruž 08 - Da Sam Tvoje Zlato 09 - Gde Si Dušo Gde Si Rano 10 - Usamljena Zver (Live mix) 11 - Kontra (Live mix) Izvor Goran555 Part 1 [Hidden Content] Part 2 [Hidden Content]
  42. 16 points
    01. Vida Pavlovic - Neka suze moje 02. Vida Pavlovic - Lumpuj nocas 03. Vida Pavlovic - Stigle su me suze 04. Vida Pavlovic - Prestala sam 05. Vida Pavlovic - Mene grle duge noci 06. Vida Pavlovic - Zaklela se zemlja 07. Vida Pavlovic - Sarena marama 08. Vida Pavlovic - Ljubav nije za bogate 09. Vida Pavlovic - Ostala je pesma moja 10. Vida Pavlovic - Livadama dolinama 11. Vida Pavlovic - Sanak me mori 12. Vida Pavlovic - Placem vec tri dana [Hidden Content]
  43. 16 points
    CD: Zijad Klopic Zike - Grade moj 01. Sto je mnogo,mnogo je [0:03:31.26] 02. U dugim nocima [0:03:18.74] 03. Grade moj [0:04:05.50] 04. Moram da idem [0:04:26.32] 05. Najteza je samoca u dvoje [0:04:14.19] 06. U oci moje pogledaj [0:03:51.17] 07. Otrov u zeni [0:03:04.45] 08. Nikad za ljubav ne molim [0:04:21.62] 09. Oprosti mi mila moja [0:04:30.21] 10. Moja luda glavo [0:04:04.52] 11. Gorimo od ljubavi (Bonus) [0:03:03.12] 12. Idi,idi (Bonus) [0:03:13.12] 13. Svadba njena (Bonus) [0:02:57.11] 14. Izdaju te suze (Bonus) [0:02:37.68] [Hidden Content]
  44. 16 points
    Mister Jon - [Rulet #01] Rulet Mister Jon - [Rulet #02] Opet sam, opet pio Mister Jon - [Rulet #03] Ne pomaze stotinu vracara Mister Jon - [Rulet #04] Kljuc i brava Mister Jon - [Rulet #05] Menjam dame Mister Jon - [Rulet #06] Izdalo me srce Mister Jon - [Rulet #07] Cuvaj mi se, ljubavi Mister Jon - [Rulet #08] Put me zove [Hidden Content]
  45. 15 points
    Zeljko Bebek - 2021 - Mali oblak ljubavi Croatia records 01. Kupit cu nam sat 02. Kceri moja 03. Ucini me sretnim (CMC festival Vodice 2020) 04. Osamdeset dana 05. Dunavom ( The best of Croatia records 2019) 06. Kakav otac, takav sin (Zvonimir Bebek) 07. Mali oblak ljubavi 08. Kada mi suze pomute vid (Bersice) 09. Meni najljepsa 10. Ostani 11. Sto sam dana pio (CMC festival Vodice 2019) 12. Sve si moje [Hidden Content] flac
  46. 15 points
    Alen Islamovic 1989 (Haj, Nek Se Cuje, Cuje, Haj, Nek Se Zna) CR 01 - Haj Nek Se Cuje Cuje Haj Nek Se Zna 02 - Cin Cin Cini Mi Se 03 - Prostakusa 04 - Divlje Godine 05 - Moja Sele 06 - Trokiram (Ubicu Se Moje Luce) 07 - Ovo Zrno Duse 08 - Ime 09 - Kad Bi Mi Tebe Bog (Oprostio) [Hidden Content]
  47. 15 points
    Mitar Miric / Bog je poslao zenu 1993g -------------------------------------------------------------------------------- DR Peak RMS Duration Track -------------------------------------------------------------------------------- DR13 0.00 dB -14.23 dB 3:31 ?-01.Dabogda se meni vratila DR13 0.00 dB -14.74 dB 4:28 ?-02.Devojka preko puta DR15 0.00 dB -15.18 dB 3:16 ?-03.Zivot je ludnica DR13 0.00 dB -15.09 dB 3:06 ?-04.Svi su me izdali DR13 0.00 dB -14.20 dB 3:33 ?-05.Bog je poslao zenu DR14 0.00 dB -15.02 dB 3:16 ?-06.Nemoj to da mi radis DR14 0.00 dB -15.33 dB 4:04 ?-07.Pobego sam od kuce DR13 0.00 dB -13.93 dB 3:38 ?-08.Da li ces me zaliti -------------------------------------------------------------------------------- Number of tracks: 8 Official DR value: DR13 Samplerate: 96000 Hz Channels: 2 Bits per sample: 24 Bitrate: 3011 kbps Codec: FLAC ======================================================= [Hidden Content]
  48. 15 points
    01. Djani - Druga dva 02. Djani - Sam sam 03. Djani - Necu vise 04. Djani - Videces je druze 05. Djani - Sve o meni zaboravi 06. Djani - Samo jednom 07. Djani - Zasto sam ti verovao (Duet-Stoja) 08. Djani - Sudena mi ona nije 09. Djani - To je tvoja zelja 10. Djani - I opet u kafani [Hidden Content]
  49. 15 points
    Miki Muharemovic - [Za nas srece nema #01] Kafana je majka moja Miki Muharemovic - [Za nas srece nema #02] Shvatila si istinu Miki Muharemovic - [Za nas srece nema #03] U ovom gradu za nas srece nema Miki Muharemovic - [Za nas srece nema #04] Idi da te ne vidim vise Miki Muharemovic - [Za nas srece nema #05] Ne pitaj me konobaru Miki Muharemovic - [Za nas srece nema #06] Bilo ti krivo, bilo ti pravo Miki Muharemovic - [Za nas srece nema #07] On sad nista nema Miki Muharemovic - [Za nas srece nema #08] Sad ti vracam dug za dug [Hidden Content] Cover sa interneta!!
  50. 15 points
    Miki Muharemovic - [Hej mazo mamina #01] Hej Mazo Mamina Miki Muharemovic - [Hej mazo mamina #02] Reci Gde Je Ona Miki Muharemovic - [Hej mazo mamina #03] Nek Placu Oci Miki Muharemovic - [Hej mazo mamina #04] Ja Sam Decko Tvojih Snova Miki Muharemovic - [Hej mazo mamina #05] Na Mom Stolu Nova Casa Miki Muharemovic - [Hej mazo mamina #06] Ti Si Moja SuDJenica Miki Muharemovic - [Hej mazo mamina #07] Bez Nje Zivot Nista Nije Miki Muharemovic - [Hej mazo mamina #08] U Mom GradU Ti Ne Zivis Vise [Hidden Content] Cover sa interneta!!
This leaderboard is set to Belgrade/GMT+02:00
×
×
  • Create New...